--> Files Forum
Bine Ai Venit Pe --> Files Forum <-- Wink !
Te Rugam Sa Te Inscrii Si Tu


;) Orice Doriti Noi Va Ajutam Cu Ce Putem!;)
 
AcasaPortalCalendarGalerieFAQCautareMembriGrupuriInregistrareConectare
Very Happy Va Uram Un Bun Venit!Very Happy Wink Dar Aveti Grija Cum Va Purtati Wink Razz Vom Lua Masuri Drastice Daca Nu Va Purtati Ca Atare ! Razz Echipa Files Forum <--

Distribuiti | 
 

 Step.Up.3D.2010.TELESYNC.XviD-danytheone

Vezi subiectul anterior Vezi subiectul urmator In jos 
AutorMesaj
Admin
Admin
Admin


Mesaje : 223
Puncte : 2147485869
Data de inscriere : 04/11/2010
Varsta : 21
Localizare : Pechea

MesajSubiect: Step.Up.3D.2010.TELESYNC.XviD-danytheone   Lun Noi 15, 2010 8:40 pm

Step.Up.3D.2010.TELESYNC.XviD-danytheone

Step Up 3D (2010)
Take the biggest step of all in 3D

Genre: Drama / Music / Romance
Rating: 4.5 (3,592 votes)

Plot Outline: A tight-knit group of New York City street dancers, including Luke (Malambri) and Natalie (Vinson), team up with NYU freshman Moose (Sevani)...

Description: INfo:

Link: http:www.imdb.comtitlett1193631
FormatInfo: Audio Video Interleave
File size: 697 MiB
Duration: 1h 38mn
Overall bit rate: 988 Kbps
Writing application: VirtualDubMod 1.5.10.2
Writing library: VirtualDub build 32817

Video: Thx to EPIDEMZ
Format: MPEG-4 Visual
Format profile: Streaming VideoL1
Format settings, BVOP: Yes
Format settings, QPel: No
Format settings, GMC: No warppoints
Format settings, Matrix: Default H.263
Codec ID: XVID
Codec IDHint: XviD
Duration: 1h 38mn
Bit rate: 922 Kbps
Width: 640 pixels
Height: 304 pixels
Display aspect ratio: 2.2
Frame rate: 25.000 fps
Resolution: 24 bits
Colorimetry: 4:2:0
Scan type: Progressive
BitsPixelFrame: 0.190
Stream size: 651 MiB 93
Writing library: XviD 1.2.1 UTC 2008-12-04

Audio Thx to boobies
Format: MPEG Audio
Format version: Version 2
Format profile: Layer 3
Codec ID: 55
Codec IDHint: MP3
Duration: 1h 38mn
Bit rate mode: Constant
Bit rate: 56.0 Kbps
Channels: 2 channels
Sampling rate: 24.0 KHz
Resolution: 16 bits
Stream size: 39.6 MiB 6
Alignment: Split accross interleaves
Interleave, duration: 40 ms 1.00 video frame
Interleave, preload duration: 500 ms








Dl.Torrent

http://www.fileshare.ro/10141671232.1

Subtitare

http://www.fileshare.ro/10143722178
Sus In jos
Vezi profilul utilizatorului http://files.forumers.ro
 
Step.Up.3D.2010.TELESYNC.XviD-danytheone
Vezi subiectul anterior Vezi subiectul urmator Sus 
Pagina 1 din 1

Permisiunile acestui forum:Nu puteti raspunde la subiectele acestui forum
--> Files Forum  :: TORRENTS :: Movies torrents-
Mergi direct la: