--> Files Forum
Bine Ai Venit Pe --> Files Forum <-- Wink !
Te Rugam Sa Te Inscrii Si Tu


;) Orice Doriti Noi Va Ajutam Cu Ce Putem!;)
 
AcasaPortalCalendarGalerieFAQCautareMembriGrupuriInregistrareConectare
Very Happy Va Uram Un Bun Venit!Very Happy Wink Dar Aveti Grija Cum Va Purtati Wink Razz Vom Lua Masuri Drastice Daca Nu Va Purtati Ca Atare ! Razz Echipa Files Forum <--

Distribuiti | 
 

 Locked Down 2010 DVDRip XviD

Vezi subiectul anterior Vezi subiectul urmator In jos 
AutorMesaj
Admin
Admin
Admin


Mesaje : 223
Puncte : 2147485869
Data de inscriere : 04/11/2010
Varsta : 21
Localizare : Pechea

MesajSubiect: Locked Down 2010 DVDRip XviD   Mar Noi 16, 2010 8:47 pm





http://hotfile.com/dl/82707468/643951f/ ... 1.rar.html


http://hotfile.com/dl/82704964/215b8e0/ ... 2.rar.html
SUBTRITARE:


http://hotfile.com/dl/82782260/f1218eb/ ... 0.srt.html




Locked Down (2010)
He rules the streets from the inside...

Genre:

Plot Outline:
Danny, a respected cop, is setup after an investigation goes wrong. While laying low in his new jail cell, Danny is forced to get involved in the inmates underground cage fighting circuit. With the help of Irving, a former mixed martial arts champion, Danny devises a scheme to bring justice and innocence to his family's name, if he can get out of the cage alive.

Description: File size : 709 MiB
Duration : 1h 38mn
Overall bit rate : 1 003 Kbps


Video
ID : 0
Format : MPEG-4 Visual
Format profile : Advanced E-mail
Format settings, BVOP : Yes
Format settings, QPel : No
Format settings, GMC : No warppoints
Format settings, Matrix : Default (H.263)
Codec ID : XVID
Codec ID/Hint : XviD
Duration : 1h 38mn
Bit rate : 872 Kbps
Width : 608 pixels
Height : 336 pixels
Display aspect ratio : 16:9
Frame rate : 23.976 fps
Resolution : 8 bits
Colorimetry : 4:2:0
Scan type : Progressive
Bits/(Pixel*Frame) : 0.178
Stream size : 616 MiB (87%)
Writing library : XviD 1.2.1 (UTC 2008-12-04)

Audio
ID : 1
Format : MPEG Audio
Format version : Version 1
Format profile : Layer 3
Mode : Joint stereo
Format_Settings_ModeExtension : MS Stereo
Codec ID : 55
Codec ID/Hint : MP3
Duration : 1h 38mn
Bit rate mode : Constant
Bit rate : 128 Kbps
Channel(s) : 2 channels
Sampling rate : 48.0 KHz
Stream size : 90.5 MiB (13%)
Alignment : Aligned on interleaves
Interleave, duration : 815 ms (19.54 video frames)
Interleave, preload duration : 216 ms
Title : VTS_01_1 T80 3_2ch 384Kbps DELAY 0ms
Writing library : LAME3.98r
Encoding settings : -m j -V 4 -q 2 -lowpass 17 -b 128

Imdb Link:http://www.imdb.com/title/tt1597033/

Subtitles: Romanian



Enjoy

Size: 709.25 MB
Sus In jos
Vezi profilul utilizatorului http://files.forumers.ro
 
Locked Down 2010 DVDRip XviD
Vezi subiectul anterior Vezi subiectul urmator Sus 
Pagina 1 din 1
 Subiecte similare
-
» Caciuli, basti tricotate V
» Felicitari handmade
» Tărâmul Lupilor . Tierra de lobos (2010)
» I am legend . Urmeazã-ţi visul (2010)

Permisiunile acestui forum:Nu puteti raspunde la subiectele acestui forum
--> Files Forum  :: MEDIA :: FULL Movies-
Mergi direct la: